The Legend of Heroes: Trails of Cold Steel – GOG | +DLCs +Update v1.4 | Una oración antes del amanecer | Love Island - Season 3
 


 

Filecrypt zeigt vereinzelt Files als "n/a". Die Downloads sind trotzdem komplett.

DNS SERVER AENDERNum der staatlichen Zensur zu umgehen. Sollten wir von eurem Provider geseprrt werden, nutzt den TOR BROWSER oder ändert euren DNS SERVER.

Filmwünsche können bei uns im Forum abgegeben werden

Wir Speichern Nicht




 
 
 
Top Releases
Blue.My.Mind.2018.German.720...
Blue.My.Mind.2018.German.108...
The.Equalizer.2.2018.German....
The.Equalizer.2.German.DL.AC...
The.Equalizer.2.German.DL.AC...
Ant-Man.And.The.Wasp.2018.MU...
Oceans.8.2018.German.AC3.DL....
Constantine.City.of.Demons.2...
Meg.2018.German.Dubbed.RETAi...
Meg.2018.German.Dubbed.RETAi...

Cinedubs
Juliet.Naked.2018.GERMAN.DL....
Juliet.Naked.2018.GERMAN.DL....
10x10.2018.German.AC3D.DL.10...
Predator.Upgrade.German.DL.A...
Predator.Upgrade.German.DL.A...
10×10.2018.German.AC3D.DL.1...
10×10.2018.German.AC3D.DL.7...
Sicario.2.German.DL.AC3.Dubb...
Sicario.2.German.DL.AC3.Dubb...
Mission.Impossible.Fallout.2...

Neuerscheinungen 2017-18
Cut.Shoot.Kill.2017.COMPLETE...
Docteur.Knock.Ein.Arzt.mit.g...
Terminal.Rache.war.nie.schoe...
Mein.Name.ist.Somebody.2018....
Kingsman.The.Secret.Service....
8.Millionen.Wege.zu.sterben....
Ein.gewisser.Herr.Gran.1933....
Vampire.gegen.Herakles.The.V...
Steig.Nicht.Aus.2018.German....
Der.Falke.und.der.Schneemann...

XXX
Desperate.Black.Wives.I.Love...
Deep.Teen.Throat.18.XXX.720p...
Desperate.Black.Wives.I.Love...
Deep.Teen.Throat.18.XXX.1080...
WhiteGhetto.18.10.30.Gabby.Q...
GrandpasFuckTeens.18.10.30.K...
GirlsOutWest.18.10.29.Ray.XX...
WildOnCam.18.10.29.Bethany.B...
GirlsOutWest.18.10.28.Freya....
IKnowThatGirl.18.10.28.Ariet...
GirlsDoPorn.E483.18.Years.Ol...
GirlsDoPorn.E484.20.Years.Ol...
GirlFap.E36.Danica.James.Dor...
GirlsDoPorn.E487.19.Years.Ol...
WetAndPuffy.18.10.31.Nana.Ga...
BustyArianna.18.10.09.For.An...
ATKGirlfriends.18.10.30.Elen...
GirlFap.E35.Hanna.Lay.Vibrat...
GirlsDoPorn.E486.19.Years.Ol...
HardX.18.10.30.Elena.Koshka....

3D
Skyscraper.3D.2018.MULTi.COM...
Ant-Man.And.The.Wasp.3D.2018...
Ant.Man.and.the.Wasp.3D.2018...
Die.Unglaublichen.2.3D.2018....
Die.Unglaublichen.2.2018.3D....
Die.Unglaublichen.2.2018.3D....
Sharknado.6.The.Last.One.3D....
Deep.Kleine.Helden.der.Tiefs...
Deep.3D.2017.MULTI.COMPLETE....
Detective.Dee.und.die.Legend...
Detective.Dee.und.die.Legend...
Skyscraper.3D.German.DL.AC3....
Ant-Man.and.the.Wasp.2018.3D...
Jurassic.World.Das.gefallene...
Jurassic.World.Das.gefallene...

Old_Stuff
Detective.Dee.und.das.Geheim...
Detective.Dee.Und.Der.Fluch....
Ghost.Rider.Spirit.of.Vengea...
Species.IV.Das.Erwachen.2007...
Species.IV.Das.Erwachen.2007...
Hotel.Transsilvanien.2012.Ge...
The.Dead.2010.German.DL.1080...
The.Dead.2.India.2013.German...
Britney.Spears.Live.The.Femm...
Buffy.The.Vampire.Slayer.199...
IMAX.Ride.Around.The.World.2...
Schimanski.-.Duisburg.Ruhror...
Akte.X.S02.German.DTS.DL.108...
How.I.Met.Your.Mother.S02.Ge...
Akte.X.S01.German.DTS.DL.108...

Filme
Wrecked.S03.GERMAN.DUBBED.72...
Legends.of.Tomorrow.S03.COMP...
Legends.of.Tomorrow.S03.COMP...
The.Walking.Dead.S08.COMPLET...
Cliffhanger.Nur.die.Starken....
Feed.the.Fish.German.DL.2009...
Cliffhanger.Nur.die.Starken....
Stirb.langsam.Jetzt.erst.rec...
The.Last.Ship.S05.COMPLETE.G...
Meuterei.auf.der.Teufelsinse...
Stirb.Langsam.2.1990.German....
Evil.Dead.EXTENDED.BOOTLEG.2...
Evil.Dead.UNCUT.German.DL.10...
The.Fog.Nebel.des.Grauens.Re...
Chico.und.Rita.2010.German.A...
American.Beauty.1999.Open.Ma...
Stoppt.die.Todesfahrt.der.U....
Stoppt.die.Todesfahrt.der.U....
The.Hills.Have.Eyes.1.UNRATE...
Zorro.1975.German.720p.BluRa...
Zorro.1975.German.DL.1080p.B...
8.Millionen.Wege.zu.sterben....
You.Can.Count.on.Me.2000.Ger...
The.Walking.Dead.S09.GERMAN....

 
 
Die.Simpsons.S28.GERMAN.DUBBED.DL.720p.WebHD.x264-TVP

Jahr: 2016
Genre: Animation | Komödie
Sprache: Deutsch AC3 | Englisch AC3
Laufzeit: 21min je Folge
Bitrate: 2000 Kbps
Format: MKV
Größe: 400 MB je Folge
Release:

Beschreibung:

Die animierte Serie „The Simpsons“ erzählt die Abenteuer der gleichnamige gelben Familie, die in der fiktiven Stadt Springfield lebt. Ihre Mitglieder sind: Homer Simpson (Dan Castellaneta), Marge Simpson (Julie Kavner), Bart Simpson (Nancy Cartwright), Lisa Simpson, The Simpsons (Yeardley Smith) und Maggie Simpson, The Simpsons (Nancy Cartwright). Zur erweiterten Familie gehören Grampa Grampa, The Simpsons Abraham Simpson (Dan Castellaneta) und Marges Zwillingsschwestern Patty & Selma Bouvier, The Simpsons (Julie Kavner).

 

enthaltene Folgen:

Die.Simpsons.S28E01.Springfield.aus.der.Asche.GERMAN.DUBBED.DL.720p.WebHD.x264-TVP

Die.Simpsons.S28E02.Die.virtuelle.Familie.GERMAN.DUBBED.DL.720p.WebHD.x264-TVP

Die.Simpsons.S28E03.Stadt.ohne.Gnade.GERMAN.DUBBED.DL.720p.WebHD.x264-TVP

Die.Simpsons.S28E04.Trocken.tot.und.toedlich.GERMAN.DUBBED.DL.720p.WebHD.x264-TVP

Die.Simpsons.S28E05.Fake.News.GERMAN.DUBBED.DL.720p.WebHD.x264-TVP

Die.Simpsons.S28E06.There.Will.Be.Buds.GERMAN.DUBBED.DL.720p.WebHD.x264-TVP

Die.Simpsons.S28E07.Havana.Wild.Weekend.GERMAN.DUBBED.DL.720p.WebHD.x264-TVP

Die.Simpsons.S28E08.Dad.Behavior.GERMAN.DUBBED.DL.720p.WebHD.x264-TVP

Die.Simpsons.S28E09.The.Last.Traction.Hero.GERMAN.DUBBED.DL.720p.WebHD.x264-TVP

Die.Simpsons.S28E10.The.Nightmare.After.Krustmas.GERMAN.DUBBED.DL.720p.WebHD.x264-TVP

Die.Simpsons.S28E11.Pork.Burns.GERMAN.DUBBED.DL.720p.WebHD.x264-TVP 

Die.Simpsons.S28E12.The.Great.Phatsby.Part.One.GERMAN.DUBBED.DL.720p.WebHD.x264-TVP

Die.Simpsons.S28E13.Fatzcarraldo.GERMAN.DUBBED.DL.720p.WebHD.x264-TVP

Die.Simpsons.S28E14.The.Cad.and.the.Hat.GERMAN.DUBBED.DL.720p.WebHD.x264-TVP

Die.Simpsons.S28E15.Kamp.Krustier.GERMAN.DUBBED.DL.720p.WebHD.x264-TVP

Die.Simpsons.S28E16.22.for.30.GERMAN.DUBBED.DL.720p.WebHD.x264-TVP 

Die.Simpsons.S28E17.A.Father.s.Watch.GERMAN.DUBBED.DL.720p.WebHD.x264-TVP

Die.Simpsons.S28E18.Caper.Chase.GERMAN.DUBBED.DL.720p.WebHD.x264-TVP

Die.Simpsons.S28E19.Looking.for.Mr.Goodbart.GERMAN.DUBBED.DL.720p.WebHD.x264-TVP NEU

 

Bitte Kommentare beachten!



General
Complete name                            : Die.Simpsons.S28E01.Springfield.aus.der.Asche.GERMAN.DUBBED.DL.720p.WebHD.x264-TVP\tvp-diesimpsons-s28e01-720p.mkv
Format                                   : Matroska
Format version                           : Version 4 / Version 2
File size                                : 417 MiB
Duration                                 : 21mn 53s
Overall bit rate                         : 2 665 Kbps
Movie name                               : Die.Simpsons.S28E01.Springfield.aus.der.Asche.GERMAN.DUBBED.DL.720p.WebHD.x264-TVP
Encoded date                             : UTC 2017-08-29 19:24:41
Writing application                      : mkvmerge v8.5.2 ('Crosses') 64bit
Writing library                          : libebml v1.3.3 + libmatroska v1.4.4
DURATION                                 : 00:21:53.600000000
NUMBER_OF_FRAMES                         : 41050
NUMBER_OF_BYTES                          : 63052800
_STATISTICS_WRITING_APP                  : mkvmerge v8.5.2 ('Crosses') 64bit
_STATISTICS_WRITING_DATE_UTC             : 2017-08-29 19:24:41
_STATISTICS_TAGS                         : BPS DURATION NUMBER_OF_FRAMES NUMBER_OF_BYTES

Video
ID                                       : 1
Format                                   : AVC
Format/Info                              : Advanced Video Codec
Format profile                           : High@L4.1
Format settings, CABAC                   : Yes
Format settings, ReFrames                : 5 frames
Codec ID                                 : V_MPEG4/ISO/AVC
Duration                                 : 21mn 53s
Bit rate                                 : 2 036 Kbps
Width                                    : 1 280 pixels
Height                                   : 720 pixels
Display aspect ratio                     : 16:9
Frame rate mode                          : Constant
Frame rate                               : 25.000 fps
Original frame rate                      : 23.976 fps
Color space                              : YUV
Chroma subsampling                       : 4:2:0
Bit depth                                : 8 bits
Scan type                                : Progressive
Bits/(Pixel*Frame)                       : 0.088
Stream size                              : 319 MiB (76%)
Title                                    : tvp-diesimpsons-s28e01-720p
Writing library                          : x264 core 152 r2851 ba24899
Encoding settings                        : cabac=1 / ref=5 / deblock=1:-3:-3 / analyse=0x3:0x133 / me=umh / subme=9 / psy=1 / psy_rd=1.00:0.15 / mixed_ref=1 / me_range=24 / chroma_me=1 / trellis=2 / 8x8dct=1 / cqm=0 / deadzone=21,11 / fast_pskip=0 / chroma_qp_offset=-3 / threads=22 / lookahead_threads=1 / sliced_threads=0 / nr=0 / decimate=1 / interlaced=0 / bluray_compat=0 / constrained_intra=0 / bframes=3 / b_pyramid=2 / b_adapt=2 / b_bias=0 / direct=3 / weightb=1 / open_gop=0 / weightp=2 / keyint=240 / keyint_min=23 / scenecut=40 / intra_refresh=0 / rc_lookahead=80 / rc=crf / mbtree=1 / crf=18.0 / qcomp=0.60 / qpmin=10 / qpmax=51 / qpstep=4 / ip_ratio=1.40 / aq=1:1.00
Language                                 : German
Default                                  : Yes
Forced                                   : Yes
Color primaries                          : BT.709
Transfer characteristics                 : BT.709
Matrix coefficients                      : BT.709

Audio #1
ID                                       : 2
Format                                   : AC-3
Format/Info                              : Audio Coding 3
Mode extension                           : CM (complete main)
Format settings, Endianness              : Big
Codec ID                                 : A_AC3
Duration                                 : 21mn 53s
Bit rate mode                            : Constant
Bit rate                                 : 192 Kbps
Channel(s)                               : 2 channels
Channel positions                        : Front: L R
Sampling rate                            : 48.0 KHz
Bit depth                                : 16 bits
Compression mode                         : Lossy
Stream size                              : 30.1 MiB (7%)
Language                                 : German
Default                                  : Yes
Forced                                   : Yes

Audio #2
ID                                       : 3
Format                                   : AC-3
Format/Info                              : Audio Coding 3
Mode extension                           : CM (complete main)
Format settings, Endianness              : Big
Codec ID                                 : A_AC3
Duration                                 : 21mn 53s
Bit rate mode                            : Constant
Bit rate                                 : 384 Kbps
Channel(s)                               : 6 channels
Channel positions                        : Front: L C R, Side: L R, LFE
Sampling rate                            : 48.0 KHz
Bit depth                                : 16 bits
Compression mode                         : Lossy
Stream size                              : 60.1 MiB (14%)
Language                                 : English
Default                                  : No
Forced                                   : No



Download:
Share-Online.biz Share-Online.bizShare-Online.bizShare-Online.biz | Rapidgator.net Rapidgator.netRapidgator.netRapidgator.net
 

Kommentare

  1. Geschrieben am 19. January 2018, 23:58 Uhr von Merlin Puls · #

    Hey!

    Bei Folge 12 wechselt der Ton immer wieder zwischen Deutsch und English (bis 03:35 Deutsch, dann bis 04:05 English usw).
    Ein Fehler beim Codieren oder liegt das an einer gekürzten Deutschen Version?

    Danke
    Azami

  2. Geschrieben am 26. January 2018, 01:38 Uhr von M.H · #

    Fatzcarraldo ist doch folge 14 und nicht 13? Vertauscht oder so? IMDB zumindest gibt diese Auskunft…

  3. Geschrieben am 30. January 2018, 22:26 Uhr von Merlin Puls · #

    Folge 12 besteht aus 2 Teilen welche zusammengefügt worden sind und damit verschieben sich alle Folgen ab 13 nach vorne.
    Mal sehn ob das noch geändert wird

    / Was soll geändert werden? Fehlt etwas? Ist etwas asynch? Blidprobleme? Doppelfolgen sind doch normal.
  4. Geschrieben am 1. February 2018, 16:26 Uhr von Florian · #

    “The Great Phatsby” ist eine Doppelfolge und hat die Staffel-Nummern 28-12 und 28-13. “Fatzcarraldo” ist bereits die Folge 28-14

    http://www.epguides.com/Simpsons/