[Erai-raws] Isekai Maou to Shoukan Shoujo no Dorei Majutsu - 12 END [1080p][Multiple Subtitle].mkv | тег trash (трэш) movies | Die ABSOLUT DÜMMSTEN ANZEIGEN auf eBay 😂
 


 

Filecrypt zeigt vereinzelt Files als "n/a". Die Downloads sind trotzdem komplett.

DNS SERVER AENDERNum der staatlichen Zensur zu umgehen. Sollten wir von eurem Provider geseprrt werden, nutzt den TOR BROWSER oder ändert euren DNS SERVER.

Filmwünsche können bei uns im Forum abgegeben werden

Wir Speichern Nicht




 
 
 
Top Releases
Blue.My.Mind.2018.German.720...
Blue.My.Mind.2018.German.108...
The.Equalizer.2.2018.German....
The.Equalizer.2.German.DL.AC...
The.Equalizer.2.German.DL.AC...
Ant-Man.And.The.Wasp.2018.MU...
Oceans.8.2018.German.AC3.DL....
Constantine.City.of.Demons.2...
Meg.2018.German.Dubbed.RETAi...
Meg.2018.German.Dubbed.RETAi...

Cinedubs
Juliet.Naked.2018.GERMAN.DL....
Juliet.Naked.2018.GERMAN.DL....
10x10.2018.German.AC3D.DL.10...
Predator.Upgrade.German.DL.A...
Predator.Upgrade.German.DL.A...
10×10.2018.German.AC3D.DL.1...
10×10.2018.German.AC3D.DL.7...
Sicario.2.German.DL.AC3.Dubb...
Sicario.2.German.DL.AC3.Dubb...
Mission.Impossible.Fallout.2...

Neuerscheinungen 2017-18
Cut.Shoot.Kill.2017.COMPLETE...
Docteur.Knock.Ein.Arzt.mit.g...
Terminal.Rache.war.nie.schoe...
Mein.Name.ist.Somebody.2018....
Kingsman.The.Secret.Service....
8.Millionen.Wege.zu.sterben....
Ein.gewisser.Herr.Gran.1933....
Vampire.gegen.Herakles.The.V...
Steig.Nicht.Aus.2018.German....
Der.Falke.und.der.Schneemann...

XXX
Desperate.Black.Wives.I.Love...
Deep.Teen.Throat.18.XXX.720p...
Desperate.Black.Wives.I.Love...
Deep.Teen.Throat.18.XXX.1080...
WhiteGhetto.18.10.30.Gabby.Q...
GrandpasFuckTeens.18.10.30.K...
GirlsOutWest.18.10.29.Ray.XX...
WildOnCam.18.10.29.Bethany.B...
GirlsOutWest.18.10.28.Freya....
IKnowThatGirl.18.10.28.Ariet...
GirlsDoPorn.E483.18.Years.Ol...
GirlsDoPorn.E484.20.Years.Ol...
GirlFap.E36.Danica.James.Dor...
GirlsDoPorn.E487.19.Years.Ol...
WetAndPuffy.18.10.31.Nana.Ga...
BustyArianna.18.10.09.For.An...
ATKGirlfriends.18.10.30.Elen...
GirlFap.E35.Hanna.Lay.Vibrat...
GirlsDoPorn.E486.19.Years.Ol...
HardX.18.10.30.Elena.Koshka....

3D
Skyscraper.3D.2018.MULTi.COM...
Ant-Man.And.The.Wasp.3D.2018...
Ant.Man.and.the.Wasp.3D.2018...
Die.Unglaublichen.2.3D.2018....
Die.Unglaublichen.2.2018.3D....
Die.Unglaublichen.2.2018.3D....
Sharknado.6.The.Last.One.3D....
Deep.Kleine.Helden.der.Tiefs...
Deep.3D.2017.MULTI.COMPLETE....
Detective.Dee.und.die.Legend...
Detective.Dee.und.die.Legend...
Skyscraper.3D.German.DL.AC3....
Ant-Man.and.the.Wasp.2018.3D...
Jurassic.World.Das.gefallene...
Jurassic.World.Das.gefallene...

Old_Stuff
Detective.Dee.und.das.Geheim...
Detective.Dee.Und.Der.Fluch....
Ghost.Rider.Spirit.of.Vengea...
Species.IV.Das.Erwachen.2007...
Species.IV.Das.Erwachen.2007...
Hotel.Transsilvanien.2012.Ge...
The.Dead.2010.German.DL.1080...
The.Dead.2.India.2013.German...
Britney.Spears.Live.The.Femm...
Buffy.The.Vampire.Slayer.199...
IMAX.Ride.Around.The.World.2...
Schimanski.-.Duisburg.Ruhror...
Akte.X.S02.German.DTS.DL.108...
How.I.Met.Your.Mother.S02.Ge...
Akte.X.S01.German.DTS.DL.108...

Filme
Wrecked.S03.GERMAN.DUBBED.72...
Legends.of.Tomorrow.S03.COMP...
Legends.of.Tomorrow.S03.COMP...
The.Walking.Dead.S08.COMPLET...
Cliffhanger.Nur.die.Starken....
Feed.the.Fish.German.DL.2009...
Cliffhanger.Nur.die.Starken....
Stirb.langsam.Jetzt.erst.rec...
The.Last.Ship.S05.COMPLETE.G...
Meuterei.auf.der.Teufelsinse...
Stirb.Langsam.2.1990.German....
Evil.Dead.EXTENDED.BOOTLEG.2...
Evil.Dead.UNCUT.German.DL.10...
The.Fog.Nebel.des.Grauens.Re...
Chico.und.Rita.2010.German.A...
American.Beauty.1999.Open.Ma...
Stoppt.die.Todesfahrt.der.U....
Stoppt.die.Todesfahrt.der.U....
The.Hills.Have.Eyes.1.UNRATE...
Zorro.1975.German.720p.BluRa...
Zorro.1975.German.DL.1080p.B...
8.Millionen.Wege.zu.sterben....
You.Can.Count.on.Me.2000.Ger...
The.Walking.Dead.S09.GERMAN....

 
 
Hell.on.Wheels.S05.COMPLETE.GERMAN.DUBBED.DL.1080p.WebHD.x264-TVP

Jahr: 2015
Genre: Drama | Western
Sprache: Deutsch AC3 | Englisch AC3
Laufzeit: 41min je Folge
Bitrate: 5000 Kbps
Format: MKV
Größe: 1,7 GB je Folge
Release:

Beschreibung:

Die US-Serie „Hell on Wheels“ handelt vom schwierigen Bau der transkontinentalen Eisenbahn in den Vereinigten Staaten kurz nach dem amerikanischen Bürgerkrieg, der den eher europäisch geprägten Osten der Nation mit dem noch „Wilden Westen“ verband. Viele entwurzelte Männer und Familien versuchten beim schwierigen Bau, ihr Glück zu machen.

 

enthaltene Folgen (Staffel komplett):

Hell.on.Wheels.S05E01.Erloeser.und.Teufel.GERMAN.DUBBED.DL.1080p.WebHD.x264-TVP

Hell.on.Wheels.S05E02.Von.Soldat.zu.Soldat.GERMAN.DUBBED.DL.1080p.WebHD.x264-TVP

Hell.on.Wheels.S05E03.Suche.nach.Gerechtigkeit.GERMAN.DUBBED.DL.1080p.WebHD.x264-TVP

Hell.on.Wheels.S05E04.Machtspiele.GERMAN.DUBBED.DL.1080p.WebHD.x264-TVP

Hell.on.Wheels.S05E05.Elixir.Of.Life.GERMAN.DUBBED.DL.1080p.WebHD.x264-TVP

Hell.on.Wheels.S05E06.Hungry.Ghosts.GERMAN.DUBBED.DL.1080p.WebHD.x264-TVP

Hell.on.Wheels.S05E07.False.Prophets.GERMAN.DUBBED.DL.1080p.WebHD.x264-TVP

Hell.on.Wheels.S05E08.Zwei.Soldaten.GERMAN.DUBBED.DL.1080p.BluRay.x264-TVP

Hell.on.Wheels.S05E09.Rueckkehr.in.den.Garten.GERMAN.DUBBED.DL.1080p.BluRay.x264-TVP

Hell.on.Wheels.S05E10.Mit.jedem.Atemzug.GERMAN.DUBBED.DL.1080p.BluRay.x264-TVP

Hell.on.Wheels.S05E11.Keine.losen.Enden.GERMAN.DUBBED.DL.1080p.BluRay.x264-TVP

Hell.on.Wheels.S05E12.Ein.angemessener.Preis.GERMAN.DUBBED.DL.1080p.BluRay.x264-TVP

Hell.on.Wheels.S05E13.Eisenbahnmaenner.GERMAN.DUBBED.DL.1080p.BluRay.x264-TVP

Hell.on.Wheels.S05E14.Fertig.GERMAN.DUBBED.DL.1080p.BluRay.x264-TVP NEU



General
Complete name                            : Hell.on.Wheels.S05E01.Erloeser.und.Teufel.GERMAN.DUBBED.DL.1080p.WebHD.x264-TVP\tvp-hellonwheels-s05e01-1080p.mkv
Format                                   : Matroska
Format version                           : Version 2
File size                                : 1.64 GiB
Duration                                 : 41mn 7s
Overall bit rate                         : 5 701 Kbps
Movie name                               : Hell.on.Wheels.S05E01.Erloeser.und.Teufel.GERMAN.DUBBED.DL.1080p.WebHD.x264-TVP
Encoded date                             : UTC 2016-01-06 19:58:09
Writing application                      : mkvmerge v5.6.0 ('Kenya Kane') built on May 28 2012 06:47:39
Writing library                          : libebml v1.2.2 + libmatroska v1.3.0

Video
ID                                       : 1
Format                                   : AVC
Format/Info                              : Advanced Video Codec
Format profile                           : High@L4.0
Format settings, CABAC                   : Yes
Format settings, ReFrames                : 4 frames
Codec ID                                 : V_MPEG4/ISO/AVC
Duration                                 : 41mn 7s
Bit rate                                 : 5 012 Kbps
Width                                    : 1 920 pixels
Height                                   : 1 080 pixels
Display aspect ratio                     : 16:9
Frame rate mode                          : Constant
Frame rate                               : 25.000 fps
Color space                              : YUV
Chroma subsampling                       : 4:2:0
Bit depth                                : 8 bits
Scan type                                : Progressive
Bits/(Pixel*Frame)                       : 0.097
Stream size                              : 1.44 GiB (88%)
Title                                    : tvp-hellonwheels-s05e01-1080p
Language                                 : German
Default                                  : Yes
Forced                                   : Yes
Color primaries                          : BT.709
Transfer characteristics                 : BT.709
Matrix coefficients                      : BT.709

Audio #1
ID                                       : 2
Format                                   : AC-3
Format/Info                              : Audio Coding 3
Mode extension                           : CM (complete main)
Format settings, Endianness              : Big
Codec ID                                 : A_AC3
Duration                                 : 41mn 7s
Bit rate mode                            : Constant
Bit rate                                 : 192 Kbps
Channel(s)                               : 2 channels
Channel positions                        : Front: L R
Sampling rate                            : 48.0 KHz
Bit depth                                : 16 bits
Compression mode                         : Lossy
Stream size                              : 56.5 MiB (3%)
Language                                 : German
Default                                  : Yes
Forced                                   : Yes

Audio #2
ID                                       : 3
Format                                   : AC-3
Format/Info                              : Audio Coding 3
Mode extension                           : CM (complete main)
Format settings, Endianness              : Big
Codec ID                                 : A_AC3
Duration                                 : 41mn 7s
Bit rate mode                            : Constant
Bit rate                                 : 384 Kbps
Channel(s)                               : 6 channels
Channel positions                        : Front: L C R, Side: L R, LFE
Sampling rate                            : 48.0 KHz
Bit depth                                : 16 bits
Compression mode                         : Lossy
Stream size                              : 113 MiB (7%)
Language                                 : English
Default                                  : No
Forced                                   : No



Download:
Share-Online.biz Share-Online.bizShare-Online.bizShare-Online.biz | Uploaded.net Uploaded.netUploaded.netUploaded.net
 

Kommentare

  1. Geschrieben am 20. March 2017, 19:15 Uhr von John · #

    Hm gut.

    Nun müsste man nur noch wissen warum Folge 8 2 mal dabei ist. Eine der Folgen nicht ok?